<?xml version="1.0" standalone="no"?> <!DOCTYPE svg PUBLIC "-//W3C//DTD SVG 1.0//EN" "http://www.w3.org/TR/2001/REC-SVG-20010904/DTD/svg10.dtd" > <svg xmlns="http://www.w3.org/2000/svg" width="100%" height="100%">
<defs >
<font id="myriadprobold" horiz-adv-x="1064" ><font-face
    font-family="Myriad Pro"
    units-per-em="2048"
    panose-1="2 11 7 3 3 4 3 2 2 4"
    ascent="1536"
    descent="-512"
    alphabetic="0" />
<missing-glyph horiz-adv-x="1024" d="M0 0V1434H1024V0H0ZM512 809L860 1331H164L512 809ZM573 717L922 195V1239L573 717ZM164 102H860L512 625L164 102ZM102 1239V195L451 717L102 1239Z" />
<glyph unicode=" " glyph-name="space" horiz-adv-x="413" />
<glyph unicode="!" glyph-name="exclam" horiz-adv-x="548" d="M391 453H158L113 1380H436L391 453ZM274 -23H270Q191 -23 141 30T90 164Q90 246 141 298T274 350T405 299T457 164Q457 83 407 30T274 -23Z" />
<glyph unicode="&quot;" glyph-name="quotedbl" horiz-adv-x="813" d="M72 1417H348L301 862H119L72 1417ZM465 1417H741L694 862H512L465 1417Z" />
<glyph unicode="#" glyph-name="numbersign" horiz-adv-x="1126" d="M457 555H645L676 786H489L457 555ZM375 0H190L244 367H76V555H274L307 786H135V975H336L389 1331H569L518 975H707L758 1331H940L889 975H1053V786H858L827 555H995V367H795L743 0H559L612
367H426L375 0Z" />
<glyph unicode="$" glyph-name="dollar" horiz-adv-x="1136" d="M664 -178H461V16Q362 21 268 45T113 104L174 344Q339 254 514 254Q604 254 658 288T713 381Q713 439 662 479T494 559Q407 588 343 621T228 699T151 802T125 934Q125 1072 216 1170T471 1298V1493H672V1313Q833
1308 971 1245L909 1014Q868 1033 841 1044T748 1070T614 1085Q522 1085 480 1052T438 969Q438 921 494 882T686 795Q868 731 947 641T1026 410Q1026 269 931 165T664 33V-178Z" />
<glyph unicode="%" glyph-name="percent" horiz-adv-x="1802" d="M430 1354Q596 1354 691 1244T786 958Q786 857 756 775T674 640T557 560T418 532Q261 532 158 642T55 936Q55 1118 158 1236T430 1354ZM420 1184Q354 1184 321 1117T287 942Q285 835 321 769T424
702Q489 702 522 765T555 944Q555 1053 523 1118T420 1184ZM600 -23H432L1198 1352H1364L600 -23ZM1389 801Q1555 801 1650 691T1745 406Q1745 208 1638 95T1376 -18T1119 91T1016 383Q1016 565 1118 683T1389 801ZM1380 631Q1314 631 1281 564T1247 391Q1245 284
1281 218T1382 152T1480 214T1513 391Q1513 500 1481 565T1380 631Z" />
<glyph unicode="&amp;" glyph-name="ampersand" horiz-adv-x="1388" d="M1376 0H1014Q945 74 924 98Q766 -23 545 -23Q424 -23 330 10T178 100T92 225T63 369Q63 626 326 766V772Q279 826 249 897T219 1040Q219 1107 246 1171T323 1287T455 1372T637 1405Q800
1405 905 1317T1010 1081Q1010 861 737 727L735 719Q761 690 811 632T899 532T967 459Q1054 598 1083 797H1362Q1303 462 1133 272L1376 0ZM592 203Q705 203 778 272Q740 310 694 360T572 495T467 612Q358 530 358 420Q358 328 422 266T592 203ZM627 1210H623Q566
1210 533 1169T500 1069Q500 969 596 870Q675 923 710 969T745 1073Q745 1128 714 1169T627 1210Z" />
<glyph unicode="&apos;" glyph-name="quotesingle" horiz-adv-x="419" d="M72 1417H348L301 862H119L72 1417Z" />
<glyph unicode="(" glyph-name="parenleft" horiz-adv-x="643" d="M356 1415H573Q367 1075 367 586Q367 109 573 -240H356Q258 -94 191 112T123 586Q125 1073 356 1415Z" />
<glyph unicode=")" glyph-name="parenright" horiz-adv-x="643" d="M289 -240H72Q279 107 279 590Q279 1070 72 1415H289Q522 1074 522 588Q520 106 289 -240Z" />
<glyph unicode="*" glyph-name="asterisk" horiz-adv-x="929" d="M584 1405L762 1300L543 1038V1034L870 1100V893L541 948V944L762 690L582 586L463 901H459L342 586L166 690L385 946L383 950L61 893V1100L381 1034V1038L166 1298L348 1405L461 1087H465L584 1405Z" />
<glyph unicode="+" glyph-name="plus" horiz-adv-x="1220" d="M510 1090H711V643H1139V453H711V0H510V453H82V643H510V1090Z" />
<glyph unicode="," glyph-name="comma" horiz-adv-x="532" d="M211 -225L2 -244Q106 45 152 338L469 358Q355 8 211 -225Z" />
<glyph unicode="-" glyph-name="hyphen" horiz-adv-x="659" d="M61 641H598V434H61V641Z" />
<glyph unicode="." glyph-name="period" horiz-adv-x="532" d="M283 -23Q204 -23 153 30T102 166Q102 251 153 303T287 356Q367 356 417 304T469 166Q469 83 418 30T283 -23Z" />
<glyph unicode="/" glyph-name="slash" horiz-adv-x="677" d="M240 -80H33L471 1405H678L240 -80Z" />
<glyph unicode="0" glyph-name="zero" horiz-adv-x="1136" d="M573 1354Q677 1354 761 1318T901 1219T996 1069T1052 883T1069 672Q1069 464 1015 310T845 66T565 -23Q440 -23 344 31T188 180T99 397T68 664Q68 812 99 935T191 1153T349 1301T573 1354ZM569 1118Q482
1118 431 1004T379 664Q379 440 429 327T571 213T710 327T758 668Q758 1118 569 1118Z" />
<glyph unicode="1" glyph-name="one" horiz-adv-x="1136" d="M483 0V1055H479L225 934L174 1167L528 1331H784V0H483Z" />
<glyph unicode="2" glyph-name="two" horiz-adv-x="1136" d="M1032 0H88V188L258 342Q418 485 504 574T642 748T694 909Q694 996 641 1050T477 1104Q338 1104 193 995L104 1217Q184 1277 298 1315T539 1354Q760 1354 883 1239T1006 938Q1006 857 980 780T901 629T790
495T651 362L528 260V256H1032V0Z" />
<glyph unicode="3" glyph-name="three" horiz-adv-x="1136" d="M78 70L141 305Q195 275 280 249T451 223Q567 223 630 272T694 399Q694 493 616 542T426 592H299V815H422Q479 815 529 829T618 879T657 969Q657 1032 607 1070T461 1108Q387 1108 310 1083T184 1028L121
1253Q186 1295 297 1324T532 1354Q737 1354 855 1259T973 1022Q973 914 912 834T729 713V709Q854 686 936 599T1018 383Q1018 205 870 91T473 -23Q352 -23 248 4T78 70Z" />
<glyph unicode="4" glyph-name="four" horiz-adv-x="1136" d="M932 0H637V317H47V520L549 1331H932V551H1090V317H932V0ZM336 551H637V846Q637 922 645 1094H639Q529 874 514 846L338 555L336 551Z" />
<glyph unicode="5" glyph-name="five" horiz-adv-x="1136" d="M975 1331V1075H459L430 870Q459 874 516 874Q736 874 866 778Q1028 671 1028 444Q1028 351 989 267T878 118T697 15T457 -23Q343 -23 245 -1T86 53L143 287Q194 262 276 242T442 221Q510 221 568
241T668 309T709 424Q709 645 334 645Q236 645 156 633L242 1331H975Z" />
<glyph unicode="6" glyph-name="six" horiz-adv-x="1136" d="M936 1350V1110Q894 1112 815 1106Q715 1098 637 1069T507 996T426 900T381 788H387Q492 893 670 893Q844 893 962 776T1081 459Q1081 328 1020 218T845 43T592 -23Q462 -23 360 23T193 149T95 334T61
559Q61 742 124 895T299 1153Q492 1331 811 1348Q872 1354 936 1350ZM588 207Q668 207 717 273T766 442Q766 540 714 606T567 672Q506 672 457 639T385 555Q371 530 371 475Q376 360 431 284T588 207Z" />
<glyph unicode="7" glyph-name="seven" horiz-adv-x="1136" d="M100 1331H1040V1135L492 0H162L711 1071V1075H100V1331Z" />
<glyph unicode="8" glyph-name="eight" horiz-adv-x="1136" d="M303 682V686Q208 736 160 812T111 979Q111 1146 244 1250T580 1354Q670 1354 745 1334T870 1281T954 1203T1004 1110T1020 1012Q1020 922 971 844T825 719V713Q932 673 1001 588T1071 383Q1071 201
931 89T559 -23Q437 -23 340 9T185 95T97 213T66 348Q66 577 303 682ZM571 193Q652 193 703 240T754 358Q754 442 698 497T545 578Q468 556 426 504T383 379Q381 304 434 249T571 193ZM565 1143Q489 1143 448 1099T406 989Q406 866 592 809Q648 825 687 871T727
977Q727 1047 687 1095T565 1143Z" />
<glyph unicode="9" glyph-name="nine" horiz-adv-x="1136" d="M182 -18V223Q216 220 317 223Q477 233 580 305Q712 395 748 553L743 555Q650 459 475 459T181 572T61 874Q61 1073 204 1213T563 1354Q688 1354 785 1309T943 1184T1035 1002T1067 780Q1067 383 834
166Q645 -6 324 -18Q271 -23 182 -18ZM551 1126Q472 1126 422 1062T371 893Q371 802 420 741T559 680Q620 680 665 704T733 766Q748 796 748 846Q749 921 731 982T666 1084T551 1126Z" />
<glyph unicode=":" glyph-name="colon" horiz-adv-x="532" d="M285 639Q205 639 155 692T104 825Q104 908 155 961T287 1014Q368 1014 417 962T469 825Q469 744 419 692T285 639ZM285 -23Q205 -23 155 30T104 164Q104 246 155 299T287 352Q368 352 417 300T469
164Q469 83 419 30T285 -23Z" />
<glyph unicode=";" glyph-name="semicolon" horiz-adv-x="532" d="M211 -225L4 -244Q108 45 154 338L467 358Q361 23 211 -225ZM295 639Q216 639 166 692T115 825Q115 908 166 961T297 1014Q378 1014 427 962T479 825Q479 744 429 692T295 639Z" />
<glyph unicode="&lt;" glyph-name="less" horiz-adv-x="1220" d="M119 457V633L1104 1090V872L358 547V543L1104 217V0L119 457Z" />
<glyph unicode="=" glyph-name="equal" horiz-adv-x="1220" d="M1139 666H82V856H1139V666ZM1139 242H82V432H1139V242Z" />
<glyph unicode="&gt;" glyph-name="greater" horiz-adv-x="1220" d="M1102 639V451L117 0V217L879 543V547L117 872V1090L1102 639Z" />
<glyph unicode="?" glyph-name="question" horiz-adv-x="911" d="M555 449H283L281 502Q270 667 401 821Q462 894 491 942T520 1036Q520 1092 483 1125T371 1159Q320 1159 264 1143T168 1098L98 1321Q246 1405 440 1405Q633 1405 734 1314T836 1085Q836 1048 830
1014T806 945T778 889T739 833T701 787T659 741Q552 618 555 485V449ZM412 -23Q331 -23 280 30T229 164Q229 246 280 298T412 350Q494 350 544 299T596 164Q596 83 546 30T412 -23Z" />
<glyph unicode="@" glyph-name="at" horiz-adv-x="1576" d="M907 512L936 707Q904 715 872 715Q771 715 701 629T631 424Q631 364 657 331T733 297Q790 297 842 360T907 512ZM1081 -23L1118 -139Q1028 -180 942 -196T741 -213Q613 -213 498 -168T294 -42T154 163T102
432Q102 557 137 673T239 887T399 1058T612 1171T868 1212Q1140 1212 1314 1046T1489 621Q1489 399 1379 265T1100 131Q1026 131 979 171T924 289H920Q819 131 653 131Q552 131 488 203T424 399Q424 526 481 634T650 809T905 877Q971 877 1040 863T1149 827L1087
446Q1072 356 1084 313T1139 268Q1213 265 1275 357T1337 614Q1337 823 1208 955T848 1087Q729 1087 623 1043T436 918T308 716T260 451Q260 198 404 56T782 -86Q952 -86 1081 -23Z" />
<glyph unicode="A" glyph-name="A" horiz-adv-x="1343" d="M852 354H457L358 0H37L457 1380H866L1296 0H958L852 354ZM502 588H807L721 881Q709 919 651 1147H647Q641 1124 619 1026T584 881L502 588Z" />
<glyph unicode="B" glyph-name="B" horiz-adv-x="1236" d="M135 6V1362Q305 1391 539 1391Q685 1391 779 1374T948 1313Q1023 1273 1067 1203T1112 1040Q1112 946 1055 869T885 748V743Q1007 711 1083 623T1159 406Q1159 226 1016 111Q858 -14 473 -14Q275 -14
135 6ZM444 1155V834H547Q669 834 734 879T799 1004Q799 1082 742 1122T578 1163Q494 1163 444 1155ZM444 610V221Q475 217 565 217Q682 217 756 266T831 418Q831 484 793 528T693 591T551 610H444Z" />
<glyph unicode="C" glyph-name="C" horiz-adv-x="1218" d="M1102 283L1147 37Q1099 14 1004 -4T795 -23Q620 -23 481 29T254 176T119 395T72 670Q72 842 131 982T292 1213T531 1352T825 1401Q939 1401 1029 1383T1165 1339L1100 1094Q978 1145 838 1145Q644 1145
522 1027T399 688Q399 480 516 359T840 238Q995 238 1102 283Z" />
<glyph unicode="D" glyph-name="D" horiz-adv-x="1425" d="M135 6V1360Q333 1391 555 1391Q749 1391 885 1355T1122 1243Q1356 1071 1356 723Q1356 534 1295 394T1128 164Q915 -14 489 -14Q287 -14 135 6ZM446 1139V236Q473 229 555 229Q775 227 900 349T1026
713Q1026 925 910 1038T588 1151Q500 1151 446 1139Z" />
<glyph unicode="E" glyph-name="E" horiz-adv-x="1093" d="M956 838V584H449V256H1016V0H137V1380H987V1124H449V838H956Z" />
<glyph unicode="F" glyph-name="F" horiz-adv-x="1079" d="M137 0V1380H979V1124H449V809H944V555H449V0H137Z" />
<glyph unicode="G" glyph-name="G" horiz-adv-x="1396" d="M1288 791V63Q1057 -14 827 -14Q459 -14 266 170Q172 261 122 391T72 674Q73 898 176 1063T456 1311T860 1395Q983 1395 1084 1376T1243 1329L1178 1077Q1048 1137 858 1137Q654 1137 527 1022T399 690Q399
479 519 359T836 238Q944 238 987 256V547H774V791H1288Z" />
<glyph unicode="H" glyph-name="H" horiz-adv-x="1411" d="M137 1380H449V850H963V1380H1274V0H963V578H449V0H137V1380Z" />
<glyph unicode="I" glyph-name="I" horiz-adv-x="583" d="M137 1380H449V0H137V1380Z" />
<glyph unicode="J" glyph-name="J" horiz-adv-x="841" d="M406 510V1380H717V508Q717 225 591 101T227 -23Q99 -23 -2 10L33 262Q107 238 193 238Q299 238 352 298T406 510Z" />
<glyph unicode="K" glyph-name="K" horiz-adv-x="1257" d="M135 0V1380H444V770H449Q475 816 545 922L856 1380H1241L784 793L1264 0H901L561 596L444 451V0H135Z" />
<glyph unicode="L" glyph-name="L" horiz-adv-x="1046" d="M137 0V1380H449V262H997V0H137Z" />
<glyph unicode="M" glyph-name="M" horiz-adv-x="1732" d="M1325 0L1303 528Q1290 836 1290 1096H1286Q1212 808 1130 561L963 23H719L571 555Q502 807 446 1096H442Q432 777 420 524L393 0H104L193 1380H608L743 920Q813 670 860 426H868Q932 702 999 922L1145
1380H1554L1628 0H1325Z" />
<glyph unicode="N" glyph-name="N" horiz-adv-x="1413" d="M422 0H135V1380H500L786 874Q902 668 1012 401H1016Q991 642 991 979V1380H1278V0H950L655 532Q498 815 416 1020H408Q422 762 422 416V0Z" />
<glyph unicode="O" glyph-name="O" horiz-adv-x="1468" d="M743 1405Q898 1405 1024 1350T1231 1198T1355 976T1399 705Q1399 367 1214 172T721 -23Q522 -23 373 71T148 324T72 682Q72 888 154 1052T390 1310T743 1405ZM737 1157Q581 1157 491 1026T401 688Q401
481 491 353T737 225Q840 225 916 286T1030 453T1069 694Q1069 821 1032 925T918 1093T737 1157Z" />
<glyph unicode="P" glyph-name="P" horiz-adv-x="1189" d="M135 0V1362Q309 1391 557 1391Q841 1391 979 1280Q1048 1226 1087 1144T1126 961Q1126 748 999 633Q841 487 551 487Q481 487 444 496V0H135ZM444 1143V735Q480 727 549 727Q674 727 745 786T817 950Q817
1046 753 1099T571 1153Q482 1153 444 1143Z" />
<glyph unicode="Q" glyph-name="Q" horiz-adv-x="1468" d="M1405 4L1317 -238Q1067 -165 770 -43Q727 -26 676 -23Q555 -15 449 33T257 165T122 383T72 680Q72 835 120 968T254 1198T468 1350T748 1405Q871 1405 976 1369T1158 1269T1290 1117T1372 925T1399 707Q1399
481 1307 318T1073 90V82Q1210 42 1405 4ZM737 225Q892 225 980 355T1069 694Q1069 892 980 1024T737 1157Q582 1157 492 1024T401 688Q401 556 440 452T557 287T737 225Z" />
<glyph unicode="R" glyph-name="R" horiz-adv-x="1214" d="M135 0V1362Q318 1391 551 1391Q860 1391 997 1282Q1126 1182 1126 991Q1126 869 1054 779T883 653V647Q1011 595 1067 391Q1079 348 1106 242T1149 80T1178 0H858Q820 78 764 322Q745 409 716 456T646
523T537 543H444V0H135ZM444 1147V768H567Q683 768 749 821T815 967Q815 1060 755 1108T586 1157Q482 1157 444 1147Z" />
<glyph unicode="S" glyph-name="S" horiz-adv-x="1105" d="M82 66L145 322Q214 286 306 261T492 236Q597 236 654 276T711 385Q711 448 659 491T479 578Q98 713 98 987Q98 1168 240 1284T621 1401Q826 1401 973 1331L903 1081Q773 1147 616 1147Q520 1147 468
1109T416 1014Q416 952 471 913T672 819Q855 751 941 652T1028 408Q1028 319 994 243T894 108T719 14T473 -20Q361 -20 254 5T82 66Z" />
<glyph unicode="T" glyph-name="T" horiz-adv-x="1122" d="M403 0V1118H31V1380H1092V1118H715V0H403Z" />
<glyph unicode="U" glyph-name="U" horiz-adv-x="1396" d="M135 1380H446V588Q446 410 511 319T696 227Q950 227 950 588V1380H1262V606Q1262 292 1112 135T686 -23Q419 -23 277 132T135 610V1380Z" />
<glyph unicode="V" glyph-name="V" horiz-adv-x="1302" d="M825 0H461L18 1380H360L528 797Q616 488 651 303H657Q706 536 782 791L958 1380H1290L825 0Z" />
<glyph unicode="W" glyph-name="W" horiz-adv-x="1818" d="M700 0H358L31 1380H365L469 813Q487 715 551 330H555Q584 515 645 817L762 1380H1094L1204 799Q1241 606 1278 336H1282Q1297 444 1362 817L1475 1380H1792L1436 0H1098L981 594Q936 827 915 1020H911Q872
767 831 594L700 0Z" />
<glyph unicode="X" glyph-name="X" horiz-adv-x="1255" d="M1223 0H862L737 250Q712 298 614 498H610Q586 429 502 250L389 0H33L432 698L47 1380H406L526 1128Q587 1003 631 899H635Q676 1009 729 1128L846 1380H1202L813 707L1223 0Z" />
<glyph unicode="Y" glyph-name="Y" horiz-adv-x="1234" d="M766 0H455V565L18 1380H377L516 1049Q587 883 623 784H627Q658 872 731 1049L870 1380H1221L766 575V0Z" />
<glyph unicode="Z" glyph-name="Z" horiz-adv-x="1181" d="M49 0V168L707 1114V1122H109V1380H1110V1200L467 266V258H1120V0H49Z" />
<glyph unicode="[" glyph-name="bracketleft" horiz-adv-x="643" d="M557 -229H139V1405H557V1233H362V-57H557V-229Z" />
<glyph unicode="\" glyph-name="backslash" horiz-adv-x="675" d="M643 -80H436L25 1405H231L643 -80Z" />
<glyph unicode="]" glyph-name="bracketright" horiz-adv-x="643" d="M86 1405H504V-229H86V-57H281V1233H86V1405Z" />
<glyph unicode="^" glyph-name="asciicircum" horiz-adv-x="1220" d="M1135 362H911L612 1092H606L307 362H88L516 1331H707L1135 362Z" />
<glyph unicode="_" glyph-name="underscore" horiz-adv-x="1024" d="M0 -154H1024V-256H0V-154Z" />
<glyph unicode="`" glyph-name="grave" horiz-adv-x="614" d="M8 1438H295L471 1126H258L8 1438Z" />
<glyph unicode="a" glyph-name="a" horiz-adv-x="1081" d="M958 592V242Q958 78 975 0H694L676 100H670Q569 -23 383 -23Q237 -23 148 68T59 285Q59 475 216 571T647 668V680Q647 704 640 724T614 766T558 799T465 811Q391 811 316 790T188 735L131 936Q293 1026
520 1026Q618 1026 694 1004T819 942T900 847T945 729T958 592ZM657 365V473Q367 473 367 315Q367 258 401 228T489 197Q545 197 590 230T651 311Q657 336 657 365Z" />
<glyph unicode="b" glyph-name="b" horiz-adv-x="1224" d="M125 299V1454H436V883H440Q486 949 563 986T743 1024Q925 1024 1040 885T1155 518Q1155 388 1116 283T1012 112T867 12T698 -23Q492 -23 397 139H393L381 0H117Q125 132 125 299ZM436 573V426Q436 395
442 371Q458 308 508 266T625 223Q725 223 782 297T840 506Q840 629 785 706T625 784Q562 784 510 741T442 631Q436 602 436 573Z" />
<glyph unicode="c" glyph-name="c" horiz-adv-x="923" d="M840 256L877 27Q780 -20 598 -20Q355 -20 212 118T68 492Q68 602 105 698T214 867T395 982T641 1024Q776 1024 879 985L829 754Q762 784 655 784Q533 784 459 706T387 504Q387 372 465 298T662 223Q762
223 840 256Z" />
<glyph unicode="d" glyph-name="d" horiz-adv-x="1220" d="M784 1454H1096V299Q1096 136 1104 0H827L815 145H809Q764 65 680 21T496 -23Q314 -23 191 119T68 492Q67 736 197 881T516 1026Q608 1026 676 996T780 913H784V1454ZM784 446V578Q784 616 780 635Q766
699 717 742T598 786Q495 786 439 706T383 502Q383 375 441 300T596 225Q663 225 713 267T778 375Q784 408 784 446Z" />
<glyph unicode="e" glyph-name="e" horiz-adv-x="1081" d="M1010 401H365Q371 309 451 260T647 211Q799 211 924 254L965 43Q814 -20 602 -20Q349 -20 209 116T68 489Q68 587 99 680T189 851T348 976T573 1024Q667 1024 743 996T870 920T955 807T1005 672T1020
524Q1020 458 1010 401ZM362 614H731Q731 646 723 678T697 743T643 796T555 817Q508 817 471 798T412 746T378 681T362 614Z" />
<glyph unicode="f" glyph-name="f" horiz-adv-x="698" d="M473 0H162V772H29V1001H162V1040Q162 1137 193 1227T287 1376Q396 1477 565 1477Q639 1477 729 1456L717 1217Q670 1231 616 1231Q543 1231 507 1182T471 1053V1001H672V772H473V0Z" />
<glyph unicode="g" glyph-name="g" horiz-adv-x="1198" d="M1073 702V145Q1073 -171 920 -305Q777 -428 514 -428Q294 -428 154 -352L215 -115Q345 -190 506 -190Q623 -190 694 -125T766 74V137H762Q717 75 647 42T492 8Q306 8 187 144T68 496Q68 732 199 878T522
1024Q708 1024 797 881H801L811 1001H1081Q1073 871 1073 702ZM762 446V594Q762 624 756 651Q738 714 695 751T588 788Q499 788 441 713T383 504Q383 388 437 313T586 238Q646 238 691 272T752 362Q762 393 762 446Z" />
<glyph unicode="h" glyph-name="h" horiz-adv-x="1200" d="M125 0V1454H436V881H440Q490 949 563 985Q636 1024 725 1024Q882 1024 978 913T1075 584V0H764V551Q764 772 602 772Q545 772 505 741T446 662Q436 638 436 594V0H125Z" />
<glyph unicode="i" glyph-name="i" horiz-adv-x="561" d="M436 0H125V1001H436V0ZM283 1436Q356 1436 400 1392T446 1280Q446 1213 401 1169T279 1124Q206 1124 162 1169T117 1280Q117 1347 163 1391T283 1436Z" />
<glyph unicode="j" glyph-name="j" horiz-adv-x="595" d="M-49 -440L-80 -197Q54 -185 104 -131Q139 -96 152 -25T166 195V1001H477V119Q477 -41 443 -146T336 -317Q204 -440 -49 -440ZM322 1436Q395 1436 439 1392T485 1280Q485 1213 440 1169T317 1124Q245 1124
201 1169T156 1280Q156 1347 202 1391T322 1436Z" />
<glyph unicode="k" glyph-name="k" horiz-adv-x="1110" d="M436 1454V580H440Q478 651 512 700L715 1001H1090L731 596L1141 0H758L514 412L436 313V0H125V1454H436Z" />
<glyph unicode="l" glyph-name="l" horiz-adv-x="563" d="M125 0V1454H436V0H125Z" />
<glyph unicode="m" glyph-name="m" horiz-adv-x="1761" d="M125 0V682Q125 821 117 1001H381L393 866H399Q503 1026 702 1026Q799 1026 871 980T977 854H981Q1040 935 1112 977Q1199 1026 1303 1026Q1455 1026 1547 917T1640 590V0H1337V545Q1337 774 1190 774Q1137
774 1100 744T1044 666Q1034 628 1034 586V0H731V563Q731 661 695 717T586 774Q531 774 494 741T440 664Q428 634 428 584V0H125Z" />
<glyph unicode="n" glyph-name="n" horiz-adv-x="1200" d="M125 0V682Q125 821 117 1001H387L401 862H408Q447 925 525 974T717 1024Q878 1024 976 915T1075 592V0H764V555Q764 772 606 772Q546 772 506 739T446 655Q436 630 436 578V0H125Z" />
<glyph unicode="o" glyph-name="o" horiz-adv-x="1181" d="M604 1026Q832 1026 973 883T1114 512Q1114 379 1070 275T950 107T782 10T586 -23Q360 -23 214 117T68 494Q68 737 214 881T604 1026ZM594 803Q541 803 500 777T436 707T401 612T389 502Q389 369 443
285T594 201Q686 201 739 284T793 504Q793 582 774 647T708 758T594 803Z" />
<glyph unicode="p" glyph-name="p" horiz-adv-x="1224" d="M125 -406V666Q125 813 117 1001H387L401 862H406Q519 1024 739 1024Q821 1024 896 989T1029 890T1121 729T1155 514Q1155 408 1129 319T1059 167T957 62T833 -2T700 -23Q613 -23 544 9T440 92H436V-406H125ZM436
567V430Q436 395 442 365Q458 301 508 259T625 217Q725 217 782 294T840 500Q840 624 785 702T629 780Q563 780 511 736T442 623Q436 598 436 567Z" />
<glyph unicode="q" glyph-name="q" horiz-adv-x="1218" d="M784 -406V127H780Q682 -23 481 -23Q311 -23 190 117T68 487Q68 617 106 722T208 892T349 991T510 1026Q704 1026 791 885L795 883L803 1001H1102Q1096 707 1096 700V-406H784ZM784 432V582Q784 608 778
633Q765 696 716 739T598 782Q495 782 439 704T383 500Q383 375 440 299T596 223Q661 223 711 263T776 365Q784 392 784 432Z" />
<glyph unicode="r" glyph-name="r" horiz-adv-x="778" d="M125 0V672Q125 886 117 1001H383L395 817H403Q428 887 474 936T571 1005T674 1026Q706 1026 739 1020V727Q691 735 655 735Q570 735 514 693T442 578Q436 546 436 508V0H125Z" />
<glyph unicode="s" glyph-name="s" horiz-adv-x="888" d="M68 49L123 270Q169 242 247 220T391 197Q524 197 524 279Q524 319 495 342T379 395Q229 445 160 523T92 696Q92 840 204 933T500 1026Q660 1026 780 967L727 752Q620 809 510 809Q454 809 423 788T391
729Q391 693 425 669T553 612Q693 564 757 489T823 303Q823 157 712 67T391 -23Q200 -23 68 49Z" />
<glyph unicode="t" glyph-name="t" horiz-adv-x="751" d="M168 1188L473 1272V1001H696V772H473V410Q473 317 501 275T596 233Q644 233 688 242L690 6Q618 -20 489 -20Q338 -20 254 66Q168 155 168 362V772H35V1001H168V1188Z" />
<glyph unicode="u" glyph-name="u" horiz-adv-x="1193" d="M1069 1001V322Q1069 168 1077 0H807L793 141H786Q769 114 745 89T684 37T592 -6T473 -23Q311 -23 216 84T121 414V1001H432V463Q432 229 590 229Q649 229 689 262T745 338Q758 364 758 406V1001H1069Z" />
<glyph unicode="v" glyph-name="v" horiz-adv-x="1085" d="M18 1001H356L492 537Q514 460 549 293H555Q579 415 610 537L739 1001H1067L694 0H383L18 1001Z" />
<glyph unicode="w" glyph-name="w" horiz-adv-x="1554" d="M23 1001H340L422 590Q468 327 477 262H483Q492 318 555 588L662 1001H907L1008 602Q1063 375 1081 262H1085Q1108 432 1145 604L1229 1001H1534L1227 0H936L842 350Q808 476 776 664H772Q749 507 709
352L608 0H315L23 1001Z" />
<glyph unicode="x" glyph-name="x" horiz-adv-x="1062" d="M14 1001H362L461 834L543 684H547Q583 761 625 838L713 1001H1051L721 524L1055 0H702L602 180Q582 214 524 332H518Q506 305 442 180L348 0H6L346 510L14 1001Z" />
<glyph unicode="y" glyph-name="y" horiz-adv-x="1071" d="M12 1001H358L508 508Q544 381 557 322H565L608 510L733 1001H1065L831 342Q728 55 648 -90T479 -315Q346 -434 180 -453L113 -190Q179 -176 248 -137Q283 -119 319 -84T377 -12Q393 14 393 33Q393 54
381 84L12 1001Z" />
<glyph unicode="z" glyph-name="z" horiz-adv-x="960" d="M45 0V178L360 573L518 750V754H80V1001H899V813L598 434Q584 418 558 388T516 339T477 296T434 252V248H915V0H45Z" />
<glyph unicode="{" glyph-name="braceleft" horiz-adv-x="643" d="M61 510V666Q111 668 144 681T191 716T211 759T217 807Q217 827 207 967Q195 1077 195 1128Q195 1269 276 1337T506 1405H578V1231H541Q474 1230 445 1193T416 1085Q416 1041 426 969Q436 866
436 827Q437 717 394 663T260 590V586Q351 568 394 514T436 348Q436 312 426 205Q416 137 416 90Q416 19 444 -18T541 -57H578V-229H504Q195 -229 195 49Q195 101 207 211Q217 349 217 371Q217 397 212 416T193 458T145 494T61 510Z" />
<glyph unicode="|" glyph-name="bar" horiz-adv-x="579" d="M180 1536H397V-512H180V1536Z" />
<glyph unicode="}" glyph-name="braceright" horiz-adv-x="643" d="M582 666V510Q532 508 499 495T452 459T432 417T426 371Q426 321 438 211Q449 60 449 49Q449 -229 139 -229H66V-57H102Q170 -56 198 -19T227 90Q227 137 217 205Q207 312 207 348Q206 460 249
514T383 586V590Q292 609 249 663T207 827Q207 866 217 969Q227 1041 227 1085Q227 1156 198 1193T102 1231H66V1405H137Q285 1405 367 1337T449 1128Q449 1118 438 967Q426 855 426 807Q426 779 431 759T450 717T498 681T582 666Z" />
<glyph unicode="~" glyph-name="asciitilde" horiz-adv-x="1220" d="M283 393H88Q87 590 164 683T373 776Q443 776 502 755T659 680Q716 648 742 635T800 610T856 598Q933 598 938 764H1133Q1141 560 1066 470T860 379Q791 379 728 401T573 475Q515 509 491 522T434
548T379 561Q337 561 313 524T283 393Z" />
</font>
</defs>
</svg>
